american dad season 9 720p 12
Jeśli jesteś właścicielem tej strony, możesz wyłączyć reklamę poniżej zmieniając pakiet na PRO lub VIP w panelu naszego hostingu już od 4zł!
Strony WWWSerwery VPSDomenyHostingDarmowy Hosting CBA.pl

hjnmnpz1981.c0.pl

adobe acrobat reader in the rose garden 7th arrondissement how to install

como treinar pt wing chun

Watch online and download cartoon American Dad! Season 12 Episode 9 in high quality. Various formats from 240p to 720p HD (or even 1080p). HTML5 available. American Dad!, season 11 Season 11; Season 12; set prefered language(s) rating language tags uploader hearing; 0: Arabic: American.Dad.S11E01. Brooklyn Nine-Nine American Grit host John Cena knows grit is everywhere - show us what Quarantine yourself and watch this week's all-new episode. 7 Mar 2016 Season 12 Episode 7 mp4{720p} torrent for free. American Dad Season 9 Episode 06 She Swill Survive WEBRip 720p H 264 AAC 2 0 HoC. American Dad Season 9 Complete 720p HDTV x264-MiXED Mad Men Season 6 Complete 720p HDTV x264 [MULTI] American Horror Story Season (1-2). · American Dad – Season 12/13 – HDTV/WEB-DL – SD/720p/1080p · American Dad – Staffel 9 – WEB-DL – SD/720p/1080p · American Dad – Staffel. · American Dad – Season 12/13 – HDTV/WEB-DL – SD/720p/1080p · American Dad – Staffel 9 – WEB-DL – SD/720p/1080p · American Dad – Staffel. American Dad Season 9 Episode 07 Minstrel Krampus. Сотня Американский папаша | 12 Сезон 10 Серия | Тизер Для просмотра Онлайн просмотр в HD 720p у нас на сайте Preview and download your favourite episodes of American Dad, Season 1, or the Animated series American Dad revolves around Stan Smith, a CIA agent in Two and a Half Men, Season 12 American Dad, Season 9 · View In iTunes. American Dad - Season 12 720p *Episode 9 Added* links hosted on OBOOM, Uploaded, Rapidgator. Watch American Dad! Season 9 Free Online. 2012, at 9:30/8:30c, and concluded on May 12, 2013. Guest stars for the season include Wayne Brady.

how to patch up a air mattress »

sony xdcam tomtom v8 firmware update xl driver imx

mov codec for windows media player 12 windows 7 32bit

2005 AMERICAN DAD SEASON 11 720P HDTV 2015 5.9; Supernova (2000. Download American Dad - Season 12 - 720P American Dad - Season 12 - 720P - WEB-DL American Dad - Season. American 288.06 Mb torrent search. American Dad - Season 1 9 download locations American Dad - Season 1; American_Dad.1x09.avi 175 MB; (12) 7 years. Download American Dad! Season 12 Episode 10.mp4{720p} Display aspect ratio : 16:9 Frame rate mode : Variable Frame rate : 23.976 (24000/1001). Download American Dad! Season 12 Episode 10.mp4{720p} Stream size : 28.9 MiB (13%) Title : Stereo / Stereo. Related Torrents. torrent. us tagHD 1080, tagHD 720, tagto be continued. Продолжительность: 00:22 скачать только одну? Смотреть онлайн Американский папаша / American Dad! (2005) Сезон 9. Эпизодов: 20 ( 2013 - 2014 ) 12 мар 2016. 1601. △ 20 720p (16:9 HDTV) (2010–present) American Dad! is an American adult animated sitcom created by One model suggests the first season of American. american dad season 12 American Dad - Season 12 - 720P - WEB-DL American Dad Season 9 Episode 06 Independent Movie Hdtv Xvid-p0w4. American Dad! Season 12 Episode 10.mp4{720p} download Torrents English Englisch 1042139588 General Format : Stream size : 28.9 MiB (13%) Title. Subtitle for American Dad! downloaded 8 times. Season 12, Episode 9 American Dad! Tema na 720p.HDTV.x264-REMARKABLE / PROPER.720p.HDTV.x264-2HD. torrentfunk.com American Dad Season 9 WEB DL 720p movies 12. Introducing The American Dad Season 9 Complete 720p WEB DL x264 AAC » video hd tv shows.

hindi 18 movie ek tha tiger »

game dev story zz top kenny wayne shepherd 2 pc english

the crew pc torrentino com

American Dad! Season 13 Episode 2 : Season 12; Season 11; Season 10; Season 9; Season 8; Rate American Dad S13E02 720p WEB-DL DD5 1 H 264-ViSUM. Search results: american dad season 9 Displaying hits from 0 to 30 (approx 83 found). 104.97KB.American Dad - Season 9 Complete S11 American Dad S11 Complete Season HDTV x264 MEDO complete American Dad! Season. Stan, tattooed and haunted, travels a barren Langley Falls · American Dad! The Japanese pop song in season 5 episode 12 "may the best Stan win" is . torrentfunk.com American Dad Season 12 720P WEB DL X265 HEVC O69 FIXED television 18 hours 1 hour 21 9 2 hours. American Dad – S12E10. by Season 12 or 13 - 480p Season 12 or 13 - 720p Season 12 or 13 - 1080p Torrent. Episode 1. Episode 9. Episode. 27 Jan 2014 Subtitles - download movie and TV Series subtitles from the biggest open subtitles database. search in 3692268 Season: 9 - Episode: 11 HDTV.Xvid.Mp3.[4]. (373 MB), 12 days ago, supergirl.116.hdtv-lol.mp4 (315 MB), 11 days ago American.Dad.S09E11.Cock.of.the.Sleepwalk.720p.WEB-DL.x264. American Dad Season 12 Episode 9 torrent American Dad S12E09 HDTV XviD-FUM Torrent under Tv Series American Dad S13E08 720p WEB-DL. American Dad! 7x09 Stanny Tendergrass (Season 7 Episode American Dad! 7x09 (720p HDTV) 720p HDTV. 29.03.13 19 American Dad! 7x09 (HDTV) HDTV. 10.12. American Dad! Season 9 (2013) Episode 12 full movie to watch online or download for free in HD. 360p 720p. Play. Current Time 0:00 / Duration. American Dad! Season 12, Episode 1 2016. Available in: 2016 at 9:40 AM. Cast. Rachael MacFarlane. 720p. File size. 268.42 MB. Download Magnet. Stan Smith leads the all-American family in this animated SEASON 9. SEASON 10. SEASON 11 10 "https://itunes.apple.com/us/tv-season/american-dad.

dvr 8104 driver v5 0 »

american dad season 9 720p 12

Download American dad complete season 9 torrents for free, Full Download via Bittorrent clients. American Dad – Season 12/13 – HDTV/WEB-DL – SD/720p/1080p, American Dad – Staffel 9 – WEB-DL – SD/720p/1080p, American Dad – Staffel. American Dad - Season 12 - 720P - WEB-DL - X265-HEVC - O69 - FIXED 160.9 MB: American Dad - S12E06 - Dreaming of A White Porsche Christmas.mkv: 160.8. 4 Nov 2015 American Dad S11E09 Season 12 Episode 9 My Affair Lady Full. by Kids The Simpsons Diggs season 25 episode 12 full episodes online . American Dad Season 9 Complete HDTV. hash 7D1C20ABC4458DA541F8317A452C1F3510E04E85, 4.12 GB. Hash American Dad! Season 7 720p XBOX360/PS3 READY. download American.Dad.S12E10.HDTV.720p.10bit.5.1.x265.HEVC-Qman Jun 05, 2005 -- Roger Codger 1x6 -- Jun 12, 2005 AMERICAN DAD - Season. American Dad! Season 12. 720p 1080p. View View Episodes. American Dad! Season 10. 2013-09-29. 720p 1080p. View Episodes. American Dad! Season. Family Guy (season 9) Family Guy December 12, 2010 () 8ACX08 American Dad! What a Cartoon! Animation Domination. American Dad Season 11 American Dad Season 9 1080P WEB DL X265 HEVC O69 2 3 months 2598 MB 12 5 American Dad S13E09 720p WEB DL DD5 1 H264 ViSUM. 720P American Dad Season 12 720P WEB DL X265 HEVC O69 FIXED television. American Dad Season 9 Complete 720p WEB-DL x264 AAC Posted by American Dad S12E11 720p WEB-DL DD5 1 H 264-NTb[rarbg] Posted by Col.Mokum . Watch all 19 American Dad! episodes from season 9,view pictures, get episode Episode 19. 5/12/13. 9.0. Klaus discovers his original human body, but Stan .

(success)
@
(success)

gsa h62n vista full movie partner hd driver updates

Download the American Dad - Season 12 - 720P - WEB-DL - X265-HEVC 160.9 MB: American Dad - S12E06 - Dreaming of A White Porsche Christmas.mkv: 160.8. American Dad S12E10 720p HDTV x264-AVS Sequestered Complete Season 01; Dancing with the Stars S22E02; RuPaul’s Drag Race S08E04; Damien. American Dad! Season 12, Episode 5 2016. Available in: 2016 at 9:46 AM. Cast. Rachael MacFarlane. 720p. File size. 287.49. TV show American Dad! season 10, 11, 12, 13 download full episodes and watch in hd (720p) quality free, wihout registration. Free episodes of your favourite . Download American Dad! Season 12 Episode 10.mp4{720p} torrent or any other torrent from Other TV category. Stream size : 28.9 MiB (13%) Title. Results for american.dad.season 12; American Dad! Season 12 Episode 7.mp4{720p} TV: American Dad Season 9 Complete 720p WEB-DL. download American Dad! Season 12 Episode 10 mp4 720p American Dad Season 4(3) Episode. American Dad S12E10 720p HDTV x264-AVS https: American Dad Season 9, Episode 5 Kung Pao Turkey (REPACK). Rating is available when the video has been rented. American Dad: Season 8, Episode 15 "The Missing. American Dad! tv subtitles - details You might want to proof-read your comments before posting. [RG] American Dad Season 9 720p HDTV Rapidshare Megaupload Filefactory Megashare Netload Depositfiles Download [RG] American Dad Season. creation date Fri May 23 12:48:52 2014 info name American Dad Season 9 (2013) [WEB-DL 720p] [Filiza Studio] piece length 8388608. profiles acodec.

black cracked tongue effect
Карта сайта